<?xml version="1.0" standalone="no"?>
<!DOCTYPE svg PUBLIC "-//W3C//DTD SVG 1.1//EN" "http://www.w3.org/Graphics/SVG/1.1/DTD/svg11.dtd" >
<svg xmlns="http://www.w3.org/2000/svg">
<metadata>Generated by IcoMoon</metadata>
<defs>
<font id="icomoon" horiz-adv-x="1024">
<font-face units-per-em="1024" ascent="960" descent="-64" />
<missing-glyph horiz-adv-x="1024" />
<glyph unicode="&#x20;" horiz-adv-x="512" d="" />
<glyph unicode="&#xe900;" glyph-name="Collection" d="M310.296 677.567c55.010 41.436 140.026 18.575 175.985-37.626 35.721 41.913 91.922 73.347 147.647 53.105 100.733-33.101 131.453-166.46 81.92-252.904-52.391-97.161-133.834-176.938-220.993-243.14-89.064 40.246-157.887 127.881-214.564 208.372-60.726 80.015-60.011 214.087 30.006 272.193z" />
<glyph unicode="&#xe901;" glyph-name="culture-P" horiz-adv-x="773" d="M0 960h309.499c-3.135-133.12 7.105-266.867-4.807-399.778-19.853-155.69-156.735-266.24-304.692-294.661v142.524c37.407 26.958 86.936 42.423 110.132 85.055 25.496 40.751 26.749 90.488 36.78 136.046-48.901 0-98.011 0.209-146.913 0.627v330.188zM462.263 960h310.962v-370.521c-11.703-165.93-149.629-296.96-310.126-322.873-0.418 47.438-0.627 94.877-0.836 142.315 38.661 24.451 86.936 40.751 110.341 82.756 26.958 40.751 27.167 91.533 37.825 137.718-49.319 0-98.638 0-148.167 0.209 0 110.132 0 220.264 0 330.397z" />
<glyph unicode="&#xe902;" glyph-name="facebook" d="M460.324 692.093c40.96 42.151 104.781 26.433 157.172 30.482 0.238-31.434 0.714-62.869 0.953-94.303-18.337-1.429-55.010-3.81-73.347-5.239-1.191-19.527-3.334-58.582-4.287-78.11 19.766 0 59.297 0 79.062 0-3.572-32.387-6.906-64.536-10.478-96.923-17.622 0-52.867 0-70.489-0.238 0-91.207 0-182.415 0-273.622-35.245 0.238-70.489 0-105.972 0 0 91.207 0 182.415 0 273.384-12.86 0.238-38.817 0.476-51.914 0.714 0 23.814 0 71.204 0 94.78 12.621 0.238 37.864 0.476 50.486 0.714 4.763 49.533-5.953 107.163 28.815 148.361z" />
<glyph unicode="&#xe903;" glyph-name="in" d="M314.582 671.137c69.060 33.816 116.927-79.539 41.198-100.971-63.107-20.004-99.78 73.823-41.198 100.971zM287.196 531.349c34.768 0 69.537 0 104.305 0 0-111.211 0-222.184 0-333.395-34.768 0-69.537 0-104.305 0 0 111.211 0 222.184 0 333.395zM447.702 534.207c38.579-3.334 80.967 0.714 111.211-28.339 55.963 50.724 159.315 42.865 189.321-32.149 26.672-89.064 9.287-184.32 13.574-275.766-34.292 0-68.346 0-102.638 0-1.667 75.252 6.668 151.457-6.43 225.994-16.193 48.342-93.351 31.434-96.208-16.432-6.43-69.537-2.143-139.788-2.62-209.563-34.292 0-68.584 0-102.876 0 0.238 112.164 0.238 224.089-3.334 336.253z" />
<glyph unicode="&#xe904;" glyph-name="twitter" d="M498.902 531.825c4.525 51.914 19.051 114.069 74.061 133.834 48.342 25.243 97.875-5.001 140.264-27.148 18.099 10.716 36.197 21.194 54.296 31.911 2.381-23.338 2.62-46.675 2.62-70.013-11.669-13.574-23.576-26.91-35.721-40.007-4.763-115.498-55.963-235.044-159.077-295.055-103.114-64.536-235.758-52.391-339.587 3.572 56.439 3.096 110.735 18.099 162.173 40.96-31.911 19.289-63.345 39.055-95.494 58.106 5.239 7.382 15.717 22.385 20.718 30.006-27.386 31.911-51.438 66.679-71.68 103.829l37.388 8.335c-26.672 43.58-28.577 94.065-25.481 143.598 67.87-58.82 144.789-108.592 235.52-121.927z" />
<glyph unicode="&#xe905;" glyph-name="youtobe" d="M286.244 624.461c118.355 3.572 237.187 4.525 355.304-0.476 46.199 0.238 26.195-63.583 34.054-92.398 28.1 14.288 56.439 27.624 85.254 40.246 1.905-88.826 1.667-177.89 0-266.954-27.862 12.383-55.248 25.719-82.158 39.531-4.048-16.908-12.383-50.724-16.432-67.632-123.833-15.241-250.761-6.668-375.308-4.763-5.715 5.239-17.146 15.479-22.623 20.718-4.287 102.4-4.525 205.276-0.238 307.676 5.715 5.953 16.67 18.099 22.147 24.052zM366.497 544.447c-37.864 0.953-23.1-74.061 10.716-52.629 42.389-6.906 18.099 76.919-10.716 52.629z" />
<glyph unicode="&#xe906;" glyph-name="menu" d="M896 652.8h-768c-14.138 0-25.6 11.462-25.6 25.6s11.462 25.6 25.6 25.6h768c14.138 0 25.6-11.462 25.6-25.6s-11.462-25.6-25.6-25.6v0zM896 396.8h-768c-14.138 0-25.6 11.462-25.6 25.6s11.462 25.6 25.6 25.6h768c14.138 0 25.6-11.462 25.6-25.6s-11.462-25.6-25.6-25.6v0zM896 140.8h-768c-14.138 0-25.6 11.462-25.6 25.6s11.462 25.6 25.6 25.6h768c14.138 0 25.6-11.462 25.6-25.6s-11.462-25.6-25.6-25.6v0z" />
<glyph unicode="&#xe907;" glyph-name="-" d="M531.2 618.667l-360.533-362.667c-8.533-8.533-21.333-8.533-29.867 0s-8.533 21.333 0 29.867l362.667 362.667c8.533 8.533 21.333 8.533 29.867 0 6.4-8.533 6.4-21.333-2.133-29.867zM864 256l-362.667 362.667c-8.533 8.533-8.533 21.333 0 29.867s21.333 8.533 29.867 0l362.667-362.667c8.533-8.533 8.533-21.333 0-29.867-6.4-6.4-21.333-6.4-29.867 0z" />
<glyph unicode="&#xe908;" glyph-name="search" d="M342.080 960h163.52c168-43.2 314.88-178.24 340.16-354.24 25.92-123.2-24.32-242.56-82.24-348.16 84.16-90.88 176-174.080 260.48-264.64v-56.96h-58.56c-90.56 83.84-173.44 175.36-263.68 259.52-104.96-58.24-223.36-109.76-346.56-83.84-175.36 24.32-306.88 170.24-355.2 334.72v169.92c42.88 167.68 175.040 299.84 342.080 343.68zM296 851.2c-132.8-53.12-223.36-195.52-211.84-338.56 6.080-184.64 182.4-339.52 366.4-321.6 200.32 9.92 359.040 220.48 309.12 416-38.080 200.96-275.84 328.96-463.68 244.16z" />
<glyph unicode="&#xe909;" glyph-name="-1" d="M512 407.467l-324.267-324.267c-10.667-10.667-29.867-10.667-40.533 0s-10.667 29.867 0 40.533l324.267 324.267-324.267 322.133c-10.667 12.8-10.667 29.867 0 40.533s29.867 10.667 40.533 0l324.267-322.133 322.133 322.133c12.8 10.667 29.867 8.533 40.533-2.133s10.667-27.733 0-38.4l-322.133-322.133 322.133-324.267c10.667-10.667 10.667-29.867 0-40.533-4.267-4.267-12.8-8.533-19.2-8.533-8.533 0-14.933 2.133-19.2 8.533-2.133 0-324.267 324.267-324.267 324.267z" />
<glyph unicode="&#xe90a;" glyph-name="1" horiz-adv-x="1052" d="M931.322 744.789l18.861-174.55h3.87l-19.4 177.333zM936.167 750.315l100.363-297.924h-5.448l-99.761 293.663zM929.537 748.146v-121.284h3.571v116.958zM435.641-54.063h224.967v-4.754h-224.967v4.754zM375.918-38.613l38.541-13.331 2.607 4.746-36.462 11.915zM156.927 809.017l-7.132-89.429h-3.568l8.921 89.429zM150.529 718.767l207.181 178.762 3.676-3.046-206.404-178.462zM357.107 895.852l-154.195-61.343-1.526 1.495 155.72 65.409zM376.139 906.83l51.45 30.366v2.612l-55.33-30.523zM375.83 906.884l278.478 21.376v-2.856l-278.478-22.363zM362.454 895.209l-9.809-107.080 4.462 0.484 7.576 106.596zM372.831 896.119l197.664-80.679 1.325 4.425-197.772 80.512-1.217-3.043zM658.964 925.67l-74.203-104.549 3.99-3.004 74.196 104.846zM24.604 589.594l115.691 117.576 2.763-2.319-116.233-116.928zM140.58 702.652l-68.804-259.871 3.191-2.724 69.717 262.595zM22.89 569.896l33.591-29.826 3.851 6.187-33.59 26.736zM14.414 570.054l47.157-129.997h3.674l-46.542 129.997zM348.409 761.055h4.236v-3.792h-4.236v3.792zM152.61 712.086l188.226 36.035v-3.701l-188.226-35.567zM148.334 704.395l96.283-156.451 3.188 3.249-97.29 155.52zM254.855 551.068l91.086 190.478h2.467l-88.619-190.478zM345.219 741.546l-28.533-283.208h3.571l28.152 283.208zM358.662 752.581l213.158 58.253v-5.363l-213.158-57.35zM673.65 917.832l128.601-133.749 2.452 2.466-131.054 135.44zM592.273 812.762l208.284-30.756v-2.528l-208.284 29.674zM821.135 775.63l95.474-13.862v-4.729l-96.993 16.379zM814.401 769.073l102.124-152.919 2.312 2.727-101.887 153.979zM807.212 770.972l-60.46-147.387h4.18l59.546 147.387zM350.527 743.627l137.273-135.492 2.462 3.674-135.826 131.818zM574.664 806.776l-78.453-195.413h3.566l77.87 195.413zM584.761 806.776l153.629-185.303 4.248 0.621-153.905 184.682zM497.654 607.394l240.22 6.091v-3.045l-236.57-5.753zM936.127 601.345l91.351-148.955h3.704l-90.946 148.955zM927.307 601.963l100.308-149.572 2.314 2.159-96.676 147.414zM752.45 615.797l192.314-51.774-4.042-3.144-188.272 50.81zM745.428 609.618l77.067-235.982h2.273l-76.623 235.982zM634.851 440.057l104.152 167.45h3.635l-105.521-167.45zM658.032 538.259l-28.088-98.202h2.677l28.975 98.202zM496.211 601.855l128.299-161.798h2.761l-128.007 161.798zM263.923 544.601l1.693 0.446 224.646 59.64v-4.116l-226.339-59.308zM491.087 600.543l-68.448-229.584h3.581l67.544 228.229zM328.945 445.461l323.835 104.873 2.535-3.546-324.044-104.562zM76.605 529.189l224.226-84.413v2.366l-219.561 85.35zM77.232 436.508l171.114 103.229 2.353-3.291-171.633-101.832zM64.151 425.239l-44.090-121.466h3.715l43.322 119.599zM68.411 424.006l78.132-259.24h3.699l-78.13 259.24zM21.956 282.154l119.76-121.625 1.838 4.43-119.763 120.928zM220.93 306.492l-42.742-117.723 3.396-6.086 41.439 120.329zM72.141 424.728l142.233-108.604 2.744 3.721-140.548 108.603zM248.986 537.876l-23.847-215.070h3.282l24.861 215.070zM253.282 535.287l163.021-165.22 2.768 0.918-162.566 164.302zM308.899 431.404l-124.328-242.785h3.684l122.482 239.103zM235.837 316.124l180.111 49.931v-2.673l-180.111-51.273zM427.952 369.3l199.319 62.848v-3.686l-199.319-62.941zM636.241 428.567l180.345-61.181 1.494 3.664-181.839 61.098zM946.533 556.973l-115.077-183.337h2.461l112.616 179.511zM954.053 554.632l14.127-241.335h4.153l-15.462 241.335zM1034.080 433.966l-59.655-120.423 3.274-3.22 60.673 123.643zM831.456 360.3l127.056-56.665v5.809l-127.056 54.336zM966.857 295.43l-33.75-161.644h4.496l31.514 161.644zM824.768 358.735l-17.386-231.198h2.675l17.83 231.198zM965.080 295.43l-152.352-166.54 2.261-1.352 152.345 167.892zM901.672 269.348l24.301-135.563h3.841l-24.297 135.563zM629.945 427.943l-10.701-206.187h2.95l10.653 207.343zM624.942 219.392l195.772 140.695 1.657-2.265-197.429-141.764zM623.9 211.733l173.633-92.043 3.201 2.321-175.581 92.95zM425.088 361.844l188.037-146.884v4.95l-185.94 145.655zM421.922 363.152l-43.867-216.89h3.655l42.045 215.069zM225.011 305.574l143.142-159.312h3.222l-142.677 162.071zM386.527 140.98l228.832 73.98v-3.482l-228.832-73.687zM618.393 211.619l-41.059-172.354h2.775l40.598 172.354zM190.714 175.604l338.472-10.838v-4.236l-338.472 12.035zM158.394 154.579l208.224-16.787v-2.829l-208.224 16.051zM151.238 149.872l19.039-93.223h2.258l-17.427 93.223zM153.467 149.187l210.232-177.641 2.319 2.768-210.078 178.286zM374.932 123.523l-3.558-144.44h3.558l3.122 147.122zM386.527 128.879l177.883-96.97 3.571 3.345-181.454 99.709zM583.229 35.864l214.792 80.979v-4.069l-214.792-82.101zM817.64 121.295l99.108 2.228v-2.228l-99.108-4.452zM799.983 115.768l-125.552-157.636h5.532l120.020 154.402zM799.857 112.828l-59.752-91.907 4.887-2.44 58.056 94.347zM729.265 5.645l-52.115-46.763 2.45-2.952 49.664 46.765zM379.391-23.969l186.036 52.837 2.553-3.286-188.589-54.037zM382.974-29.406l275.625-18.266v-3.561l-275.625 19.476zM577.334 27.944l82.162-74.051v4.403l-77.646 69.648zM173.363 816.974c0-7.417-6.006-13.424-13.42-13.424s-13.417 6.008-13.417 13.424c0 7.411 6.003 13.412 13.417 13.412s13.42-6.001 13.42-13.412zM366.847 776.288c0-8.394-6.806-15.201-15.197-15.201-8.399 0-15.208 6.806-15.208 15.201 0 8.403 6.808 15.201 15.208 15.201 8.391-0.002 15.197-6.798 15.197-15.201zM377.246 904.083c0-6.582-5.343-11.928-11.93-11.928s-11.932 5.347-11.932 11.928c0 6.6 5.345 11.939 11.932 11.939s11.93-5.338 11.93-11.939zM450.361 946.139c0-7.654-6.2-13.857-13.856-13.857-7.659 0-13.866 6.204-13.866 13.857 0 7.672 6.207 13.861 13.866 13.861 7.655 0 13.856-6.189 13.856-13.861zM591.858 812.849c0-6.108-4.948-11.051-11.054-11.051-6.099 0-11.047 4.943-11.047 11.051 0 6.104 4.948 11.042 11.047 11.042 6.108 0 11.054-4.938 11.054-11.042zM724.26 861.436c0-8.315-6.737-15.056-15.056-15.056-8.317 0-15.059 6.741-15.059 15.056 0 8.32 6.742 15.059 15.059 15.059s15.056-6.741 15.056-15.059zM822.485 779.344c0-6.638-5.377-12.011-12.006-12.011-6.639 0-12.013 5.375-12.013 12.011 0 6.629 5.375 11.999 12.013 11.999 6.629 0 12.006-5.37 12.006-11.999zM837.098 366.73c0-6.222-5.046-11.27-11.274-11.27s-11.272 5.048-11.272 11.27c0 6.231 5.043 11.262 11.272 11.262 6.227 0 11.274-5.031 11.274-11.262zM502.361 606.234c0-4.793-3.877-8.673-8.673-8.673-4.791 0-8.675 3.88-8.675 8.673 0 4.781 3.883 8.659 8.675 8.659 4.796 0 8.673-3.878 8.673-8.659zM917.851 279.269c0-8.931-7.245-16.175-16.18-16.175-8.929 0-16.175 7.243-16.175 16.175 0 8.933 7.245 16.161 16.175 16.161 8.934 0 16.18-7.228 16.18-16.161zM686.216 553.534c0-10.288-8.345-18.627-18.625-18.627-10.285 0-18.63 8.339-18.63 18.627s8.345 18.617 18.63 18.617c10.278 0.002 18.625-8.329 18.625-18.617zM756.030 615.797c0-5.86-4.752-10.604-10.602-10.604-5.856 0-10.604 4.746-10.604 10.604 0 5.848 4.747 10.595 10.604 10.595 5.848 0 10.602-4.747 10.602-10.595zM914.030 760.24c0-8.318 6.743-15.061 15.061-15.061s15.061 6.743 15.061 15.061v0c0 8.318-6.743 15.061-15.061 15.061s-15.061-6.743-15.061-15.061v0zM949.498 614.907c0-9.056-7.343-16.401-16.392-16.401-9.059 0-16.404 7.345-16.404 16.401 0 9.049 7.345 16.391 16.404 16.391 9.051-0.002 16.392-7.341 16.392-16.391zM980.614 304.703c0-6.361-5.144-11.503-11.496-11.503s-11.496 5.144-11.496 11.503c0 6.342 5.146 11.485 11.496 11.485s11.496-5.142 11.496-11.485zM1051.538 441.328c0-7.908-6.411-14.315-14.321-14.315-7.902 0-14.311 6.408-14.311 14.315s6.411 14.305 14.311 14.305c7.912 0 14.321-6.396 14.321-14.305zM639.681 433.565c0-4.658-3.774-8.435-8.443-8.435-4.65 0-8.426 3.777-8.426 8.435 0 4.655 3.777 8.432 8.426 8.432 4.67 0 8.443-3.777 8.443-8.432zM682.904-50.723c0-7.326-5.951-13.277-13.282-13.277s-13.279 5.951-13.279 13.277 5.947 13.267 13.279 13.267 13.282-5.941 13.282-13.267zM748.182 12.336c0-7.090-5.736-12.833-12.831-12.833-7.088 0-12.833 5.741-12.833 12.833s5.743 12.813 12.833 12.813c7.095-0.002 12.831-5.719 12.831-12.813zM795.93 119.78c0-6.101 4.946-11.047 11.047-11.047s11.047 4.946 11.047 11.047v0c0 6.101-4.946 11.047-11.047 11.047s-11.047-4.946-11.047-11.047v0zM944.152 122.903c0-7.584-6.143-13.729-13.726-13.729-7.579 0-13.724 6.145-13.724 13.729 0 7.578 6.145 13.717 13.724 13.717 7.584 0 13.726-6.14 13.726-13.717zM585.169 31.636c0-5.978-4.849-10.825-10.825-10.825s-10.823 4.847-10.823 10.825c0 5.971 4.847 10.821 10.823 10.821s10.825-4.85 10.825-10.821zM359.651 749.218c0-5.686-4.614-10.298-10.305-10.298-5.696 0-10.305 4.611-10.305 10.298 0 5.699 4.609 10.308 10.305 10.308 5.689 0 10.305-4.611 10.305-10.308zM79.46 432.603c0-6.099-4.947-11.051-11.049-11.051s-11.047 4.952-11.047 11.051c0 6.108 4.947 11.044 11.047 11.044 6.103 0 11.049-4.936 11.049-11.044zM30.16 293.958c0-8.307-6.739-15.051-15.056-15.051s-15.061 6.744-15.061 15.051c0 8.332 6.742 15.064 15.061 15.064s15.056-6.734 15.056-15.064zM186.46 46.218c0-7.33-5.942-13.277-13.279-13.277-7.335 0-13.277 5.947-13.277 13.277 0 7.328 5.942 13.265 13.277 13.265 7.336 0 13.279-5.937 13.279-13.265zM162.586 157.279c0-6.253-5.085-11.339-11.348-11.339-6.27 0-11.348 5.087-11.348 11.339 0 6.276 5.078 11.356 11.348 11.356 6.263 0 11.348-5.080 11.348-11.356zM192.991 177.347c0-9.14-7.404-16.549-16.544-16.549-9.137 0-16.544 7.409-16.544 16.549 0 9.123 7.407 16.527 16.544 16.527 9.14 0 16.544-7.404 16.544-16.527zM0 581.225c0-8.318 6.743-15.061 15.061-15.061s15.061 6.743 15.061 15.061v0c0 8.318-6.743 15.061-15.061 15.061s-15.061-6.743-15.061-15.061v0zM430.235 367.518c0-4.266-3.451-7.716-7.719-7.716-4.266 0-7.724 3.45-7.724 7.716 0 4.263 3.458 7.716 7.724 7.716 4.268 0 7.719-3.453 7.719-7.716zM387.566 138.546c0-5.615-4.547-10.156-10.156-10.156-5.613 0-10.161 4.54-10.161 10.156s4.547 10.16 10.161 10.16c5.608-0.002 10.156-4.543 10.156-10.16zM440.014-49.743c0-7.466-6.047-13.518-13.501-13.518s-13.498 6.052-13.498 13.518c0 7.434 6.044 13.484 13.498 13.484s13.501-6.049 13.501-13.484zM382.8-29.877c0-5.988-4.847-10.838-10.825-10.838s-10.823 4.85-10.823 10.838c0 5.968 4.845 10.809 10.823 10.809s10.825-4.842 10.825-10.809zM156.026 712.073c0-6.27-5.082-11.339-11.343-11.339-6.271 0-11.35 5.070-11.35 11.339 0 6.273 5.078 11.343 11.35 11.343 6.263-0.002 11.343-5.070 11.343-11.343zM54.091 537.881c0-8.976 7.276-16.252 16.252-16.252s16.252 7.276 16.252 16.252v0c0 8.976-7.276 16.252-16.252 16.252s-16.252-7.276-16.252-16.252v0zM263.732 543.674c0-5.765-4.683-10.447-10.455-10.447-5.77 0-10.45 4.682-10.45 10.447 0 5.777 4.68 10.455 10.45 10.455 5.77 0.002 10.455-4.678 10.455-10.455zM332.476 441.424c0-9.718-7.866-17.584-17.579-17.584-9.723 0-17.594 7.866-17.594 17.584 0 9.709 7.871 17.58 17.594 17.58 9.712 0 17.579-7.871 17.579-17.58zM235.871 314.375c0-6.153-4.999-11.155-11.164-11.155s-11.159 5.004-11.159 11.155c0 6.158 4.994 11.145 11.159 11.145s11.164-4.985 11.164-11.145zM561.746 162.121c0-9.88-8.006-17.891-17.874-17.891-9.89 0-17.901 8.010-17.901 17.891 0 9.875 8.011 17.881 17.901 17.881 9.866-0.002 17.874-8.008 17.874-17.881zM626.681 216.059c0-4.174-3.385-7.561-7.559-7.561-4.182 0-7.567 3.389-7.567 7.561 0 4.184 3.387 7.569 7.567 7.569 4.174 0 7.559-3.385 7.559-7.569zM680.018 930.937c0-7.498-6.076-13.581-13.582-13.581-7.502 0-13.574 6.082-13.574 13.581 0 7.493 6.072 13.562 13.574 13.562 7.507 0 13.582-6.067 13.582-13.562zM168.521 823.379l256.472 120.121 3.060-4.277-257.071-120.104zM447.807 946.139l206.5-14.181v-3.698l-206.5 13.559zM447.807 940.882l248.604-79.447v4.162l-248.604 77.902zM672.828 918.598l243.752-157.099 2.256 3.146-243.751 158.908zM1038.372 430.397l-100.73-296.611h-4.535l100.721 296.611zM680.22-49.408l244.854 161.722-3.674 2.297-241.18-160.34zM180.637 36.438l182.391-69.84v5.476l-179.597 68.936zM17.133 282.058l146.364-229.417 4.128 2.282-146.357 227.136zM12.929 568.272h2.967v-264.499h-2.967v264.499zM20.061 591.622l132.583 217.394h4.283l-133.18-221.094zM153.641 806.776l-81.865-256.551 5.873-2.28 80.365 258.831zM428.063 936.548l-72.937-147.309 3.77-2.78 74.345 150.089zM364.683 780.835l334.709 78.704v-4.53l-334.709-79.247zM361.386 772.16l292.050-207.007-3.18-4.541-288.87 206.101zM67.014 525.206l-51.118-221.433h5.699l49.737 221.433zM668.344 918.48l31.59-46.59h5.255l-32.334 51.35zM720.64 853.12l195.969-91.621v4.714l-195.969 93.326zM715.248 851.218l203.534-227.633 3.009 3.358-201.093 226.72zM705.96 848.542l-38.571-277.858h5.502l37.65 277.858zM675.086 538.783l142.896-167.824 4.557 2.726-142.899 166.923zM23.678 285.759l139.843-104.277 4.104 2.817-141.21 104.281zM927.138 601.963l-25.526-308.882h2.96l24.964 308.882zM911.116 291.698l119.94 141.073 3.622-2.471-120.453-141.080zM829.239 358.491l61.718-71.498 2.469 4.317-60.229 70.156zM894.501 268.876l-85.878-139.163v-5.255l88.7 141.088zM560.845 167.442l329.195 108.371v-4.54l-329.195-108.071zM183.999 164.627l230.553-208.951h3.181l-229.186 211.68zM744.741 18.785l174.749 101.093 2.162-4.206-174.745-99.857zM435.641-49.343l290.058 60.568v-4.349l-287.307-60.898zM963.963 563.212c0-6.33-5.127-11.468-11.466-11.468-6.327 0-11.468 5.137-11.468 11.468 0 6.337 5.141 11.464 11.468 11.464 6.339 0 11.466-5.127 11.466-11.464zM80.113 547.968l258.168 221.011 2.555-2.683-256.528-221.769zM70.259 523.093l99.991-334.474 4.066 2.256-99.982 334.331zM626.406 429.099l-77.907-251.337h4.278l76.358 248.92zM169.072 811.769l167.078-36.008v4.616l-163.911 36.47zM682.551 558.779l237.273 52.657 3.178-4.001-240.451-52.802zM552.817 154.027l174.318-136.339v4.221l-169.647 133.982zM433.341-39.585l102.117 188.788h4.109l-103.035-191.072zM174.315 162.352h3.568v-105.703h-3.568v105.703zM322.215 428.719l209.135-256.155 3.635 2.278-208.244 256.821z" />
<glyph unicode="&#xe90b;" glyph-name="B-arrow" horiz-adv-x="585" d="M0 960h70.949c172.617-156.526 345.966-313.051 514.194-473.966v-80.457c-172.617-155.063-341.577-315.246-514.926-469.577h-70.217v65.829c149.943 151.406 312.32 290.377 457.143 446.171-145.554 155.794-307.931 294.766-457.143 446.903v65.097z" />
<glyph unicode="&#xe90c;" glyph-name="qq1" horiz-adv-x="926" d="M393.996 960h134.339c87.528-27.063 173.105-73.387 223.817-152.137 63.634-86.065 54.613-198.705 91.185-295.253 31.208-53.882 62.171-108.008 83.139-167.010v-141.653c-24.869-28.526-54.37-52.175-82.164-77.288 1.95-30.232 8.046-59.977 7.314-90.21-20.968-58.758-85.090-77.775-136.533-100.45h-128c-41.691 14.141-81.92 32.67-124.343 44.617-41.204-11.459-79.726-30.232-119.71-44.617h-126.050c-54.126 20.724-121.173 39.741-142.385 100.937-0.488 29.989 5.608 59.733 7.558 89.722-27.55 25.112-56.564 48.518-82.164 75.581v137.265c15.604 42.667 30.72 86.065 55.345 124.343 71.924 97.28 44.13 231.131 110.69 330.606 49.006 84.846 137.752 134.827 227.962 165.547zM245.516 811.032c-88.99-87.040-70.217-220.891-112.396-328.168-64.366-78.75-106.789-191.634-62.415-290.133 24.869 12.434 49.981 24.625 75.093 36.815 19.261-23.65 36.571-48.762 51.2-75.825-7.802-35.596-52.663-47.055-72.411-76.312 2.926-79.238 107.52-88.99 168.472-88.99 75.093-8.046 137.509 71.924 211.383 37.547 64.853-34.865 141.166-49.006 212.846-28.77 38.522 10.24 88.747 32.183 84.846 80.213-23.65 25.6-53.882 44.617-76.069 71.924 16.335 28.038 34.621 54.613 54.857 79.97 25.112-11.947 49.981-24.137 74.85-36.571 34.377 74.362 16.579 164.328-23.406 232.838-95.086 103.619-44.13 268.19-140.19 372.541-105.082 139.215-333.288 145.554-446.659 12.922z" />
<glyph unicode="&#xe90d;" glyph-name="wx1" horiz-adv-x="1303" d="M374.225 960h187.733c173.459-32.272 314.958-146.773 395.016-301.925 145.842-44.684 292.616-121.328 346.298-274.928v-130.327c-42.822-75.714-95.573-145.222-150.497-212.247 10.861-35.064 22.032-69.818 34.133-104.572h-33.823c-119.156 51.51-249.173 44.684-374.846 59.268-116.674 15.825-196.732 110.778-271.515 192.078-130.948 22.032-261.896-2.172-382.914-53.993 11.481 44.684 23.273 89.367 35.685 133.741-60.509 71.37-119.156 145.532-159.496 230.865v147.084c51.821 170.046 206.662 278.032 374.225 314.958zM58.337 587.326c-17.998-145.532 133.12-216.902 178.424-339.161 80.989 29.168 166.943 17.998 249.794 3.413 13.343 83.161 10.861 177.183 69.508 244.519 75.404 107.365 210.075 136.844 328.921 168.495-77.265 142.429-225.28 239.554-388.81 242.967-194.25 18.618-428.528-107.675-437.838-320.233zM584.921 434.657c-67.956-109.227-19.239-258.172 85.644-325.198 117.605-89.057 272.756-64.853 409.91-58.958 53.372 65.164 113.571 126.293 151.428 202.007 30.41 72.921 6.516 159.806-44.063 217.522-150.187 180.286-478.487 168.805-602.919-35.375zM316.509 759.234c73.852 14.584 91.539-91.539 23.583-112.33-43.753 4.034-74.783 26.376-92.781 67.336 17.377 11.171 52.131 33.513 69.198 44.994zM572.819 730.686c24.514 38.788 135.292 44.684 112.95-21.721 18.618-101.159-160.427-57.716-112.95 21.721zM748.451 431.864c30.72 45.304 110.468-5.585 74.162-50.89-30.72-44.994-110.468 5.585-74.162 50.89zM999.796 436.519c52.441 10.24 67.646-8.688 46.235-56.785-52.441-10.55-67.956 8.378-46.235 56.785z" />
<glyph unicode="&#xe90e;" glyph-name="ys1" horiz-adv-x="1434" d="M5.803 960h1419.264c2.048-0.341 6.485-0.683 8.533-0.683v-1018.197c-1.365-1.024-4.437-3.755-6.144-5.12h-1422.336c-1.365 1.365-3.755 4.437-5.12 5.803v1013.077c1.365 1.365 4.437 3.755 5.803 5.12zM73.045 885.248c-0.683-291.499-0.683-582.997 0-874.496 429.056-0.341 858.112 0 1287.509 0 0.683 291.499 0.683 582.997 0 874.496-429.056 0.341-858.453 0-1287.509 0zM138.581 859.989c200.021-164.864 384-348.16 578.56-519.168 191.829 171.008 376.491 350.208 572.075 516.779 10.923-15.019 32.768-45.056 43.691-60.075-160.427-150.528-325.632-295.936-485.717-446.805-40.619-34.475-79.531-75.093-131.072-93.184-50.517 19.115-89.429 58.709-129.707 93.184-159.744 150.528-324.608 295.595-484.693 445.44 9.216 15.701 27.648 47.787 36.864 63.829z" />
<glyph unicode="&#xe90f;" glyph-name="kf1" horiz-adv-x="1162" d="M495.118 960h182.383c126.201-36.255 256.83-94.651 331.278-208.951 46.772-72.787 96.035-143.914 153.6-208.951v-308.030c-56.458-44.835-151.386-78.876-197.328-1.107-30.443 130.629-34.595 280.908 39.299 399.083-98.802 200.372-343.455 310.798-557.665 238.564-124.541-34.871-218.915-132.013-280.631-242.439 76.108-145.851 56.735-317.717 4.151-467.442 68.359-108.765 212.549-163.563 334.599-118.452 58.949 23.801 113.47-2.491 161.072-36.532-17.159-23.524-34.871-46.772-53.137-69.743h-95.481c-98.525 37.916-204.246 58.396-298.621 106.275-81.366 58.672-140.316 143.083-218.638 205.907v296.406c61.44 60.333 114.577 128.138 160.242 200.649 73.617 117.622 206.184 178.231 334.876 214.763z" />
<glyph unicode="&#xe910;" glyph-name="top1" horiz-adv-x="829" d="M8.29 960h801.158c-0.731-46.568-30.964-74.85-77.775-61.684-239.665 2.438-479.33-1.707-718.994 1.95-1.219 14.872-3.413 44.861-4.389 59.733zM343.284 762.514c21.455 18.042 38.522 45.105 67.291 52.175 141.897-133.851 273.31-278.43 418.377-409.112v-27.063c-11.459-4.389-34.377-12.922-45.836-17.31-122.392 103.375-225.036 228.45-345.234 334.75-4.632-253.318-0.731-506.636-1.707-759.954h-62.903c-1.219 251.855 2.682 503.71-1.95 755.322-118.004-91.185-209.432-213.333-324.51-308.907-11.703 3.657-35.109 10.971-46.811 14.629v19.017c110.202 119.71 230.888 228.937 343.284 346.453z" />
<glyph unicode="&#xe911;" glyph-name="QQ" d="M980.798 265.894c-21.144 122.797-109.845 203.25-109.845 203.25 12.648 111.478-33.792 131.266-33.792 131.266-9.77 344.922-306.176 338.916-312.431 338.75-6.255 0.166-302.717 6.172-312.431-338.75 0 0-46.467-19.788-33.82-131.266 0 0-88.701-80.453-109.817-203.25 0 0-11.292-207.485 101.404-25.406 0 0 25.351-69.162 71.791-131.266 0 0-83.082-28.257-75.997-101.625 0 0-2.878-81.837 177.401-76.219 0 0 126.699 9.853 164.753 63.516h33.515c38.026-53.635 164.726-63.516 164.726-63.516 180.224-5.618 177.401 76.219 177.401 76.219 7.030 73.368-75.997 101.625-75.997 101.625 46.44 62.104 71.791 131.266 71.791 131.266 112.585-182.078 101.348 25.406 101.348 25.406z" />
<glyph unicode="&#xe912;" glyph-name="f1" d="M598.372 870.957h155.826c83.256-51.2 158.943-86.817 247.096-13.802-25.823-51.2-91.27-111.304-5.343-142.024-17.809-12.911-53.426-38.734-71.235-51.645 10.24-309.426-223.944-617.962-543.61-638.442h-377.99l243.534 0.445c-51.2 11.576-154.045 34.727-205.69 46.303 80.139 61.885 183.43 74.797 264.904 133.565-72.125 7.569-128.223 50.31-180.313 97.948 9.35 15.583 27.158 47.193 36.508 63.221-62.33 41.405-205.245 199.457-50.755 215.93-89.043 48.529-71.68 160.278-56.988 243.534 130.449-101.064 268.466-212.369 444.327-216.821-12.911 93.050 20.48 199.012 116.202 232.403-4.007 7.123-12.021 21.816-16.473 29.384z" />
<glyph unicode="&#xe913;" glyph-name="f2" d="M233.082 960h96.061c74.606-15.604 134.583-61.928 184.32-117.516 44.861 55.589 102.888 95.086 170.667 117.516h90.697c134.095-22.918 220.404-145.798 249.173-271.116v-125.318c-68.267-266.728-288.67-454.949-489.082-627.566h-37.547c-213.090 158.476-421.79 360.838-497.371 623.665v115.078c19.505 128.731 103.863 248.686 233.082 285.257z" />
<glyph unicode="&#xe914;" glyph-name="f3" horiz-adv-x="445" d="M252.438 960h192.779v-172.744c-34.727-3.117-104.181-8.904-138.908-11.576-1.781-36.953-5.788-109.969-7.569-146.477 36.508 0 109.969-0.445 146.477-0.445v-20.925c-4.452-40.070-13.802-119.318-18.254-159.388-32.946 0-98.838-0.89-131.784-1.336-0.445-170.073 0-340.591 0-511.11h-198.122c0 170.073 0.445 340.146 0 510.664-24.042 0.445-72.57 1.781-97.057 2.671v176.306c24.042 0.445 71.68 0.89 95.722 1.336-5.343 125.551-3.117 307.645 156.717 333.023z" />
<glyph unicode="&#xe915;" glyph-name="f4" d="M1.024 960h180.736c80.384-76.8 61.44-252.416-80.384-219.136-25.088 9.216-75.776 28.16-101.376 37.376v171.008c0.512 2.56 1.024 8.192 1.024 10.752zM0 650.24c75.776 1.536 151.552 2.56 227.328 3.584 0-239.104 0-478.72 0-717.824h-227.328v714.24zM348.16 665.6c80.384-12.8 161.28-26.112 239.104-49.152 170.496 103.424 413.696 38.4 436.736-180.224v-500.224h-221.184c-3.584 160.768 15.36 324.096-14.848 482.816-25.6 108.032-201.216 71.168-204.288-30.72-16.896-150.016-5.632-301.568-7.68-452.096h-220.672c0.512 243.2 0.512 486.4-7.168 729.6z" />
<glyph unicode="&#xe916;" d="M0 813.714h22.918v-21.943l-22.918-7.802v29.745z" />
<glyph unicode="&#xe917;" d="M0 108.617l19.017-9.752 9.265-16.579h-28.282v26.331z" />
<glyph unicode="&#xe918;" d="M22.918 813.714h790.43c15.604-64.853 28.77-130.682 41.448-196.51 56.564 31.208 113.128 61.928 169.204 94.11v-556.861c-56.564 25.356-112.64 51.2-168.229 78.507-12.19-37.547-36.084-113.128-48.274-150.674h-779.215l-9.265 16.579-19.017 9.752v675.352l22.918 7.802v21.943zM204.312 644.51c-85.821-37.059-2.438-101.425 34.621-137.509 15.116 30.232 45.349 91.185 60.465 121.905-23.893 3.901-71.192 11.703-95.086 15.604z" />
<glyph unicode="&#xe919;" glyph-name="xl" d="M642.449 805.064c103.29 62.33 251.103 12.911 316.104-85.037 54.317-73.461 23.151-168.737 20.48-251.993-17.363 2.671-52.536 7.569-69.899 10.24-0.445 76.577-2.671 153.155-6.678 229.732-32.946-15.583-65.892-30.72-98.838-45.857l43.186-46.303c-9.35-28.494-28.049-85.037-37.398-113.53-6.233 30.275-18.699 91.27-24.932 121.544-32.946 8.904-99.283 26.713-132.675 35.617 69.454 24.042 141.134 40.515 207.471 73.016-43.631 52.981-225.725-29.384-216.821 72.57zM54.762 417.725c79.249 159.833 240.863 327.235 435.423 292.953 2.671-34.282 8.459-102.4 11.13-136.682 102.845 63.666 275.59 60.55 231.958-103.29 65.002-40.96 150.929-89.489 112.64-182.094-96.612-223.054-395.798-256.89-603.715-196.341-138.017 31.61-264.904 183.875-187.437 325.454zM238.637 446.219c-72.57-30.72-139.798-113.085-109.523-194.56 113.53-220.828 531.144-167.847 564.090 83.256-48.974 185.656-312.988 186.101-454.567 111.304zM217.266 256.111c-1.781 164.73 259.562 238.637 315.214 76.577 36.953-118.873-109.078-209.697-213.259-167.402 26.713 65.892 92.16 109.523 132.23 168.292-81.030-16.473-156.717-49.864-234.184-77.468z" />
<glyph unicode="&#xe91a;" glyph-name="toutiao" d="M133.565 826.435c255.11 0 510.664 0 766.219 0 4.007-254.219 0.89-508.438 1.781-762.657-38.734 5.788-115.757 16.918-154.49 22.706-154.045-18.699-312.988-11.13-467.478-3.117-36.508-4.452-109.523-13.802-146.477-18.254 0.89 253.774 0.445 507.548 0.445 761.322zM235.075 691.979c-0.445-58.769-0.445-117.537 0-176.306 73.461-0.445 147.367-0.89 221.273-1.336 0 59.659 0 119.318 0 178.977-73.906-0.445-147.367-0.89-221.273-1.336zM585.461 679.513c16.473-60.104 181.203-59.214 200.348-0.445-58.769 32.501-141.134 32.056-200.348 0.445zM570.769 540.16c37.398-57.878 160.723-41.85 222.163-17.363-41.405 57.433-159.388 45.412-222.163 17.363zM206.136 395.019c203.464-0.445 416.278-36.953 614.4 19.59-203.019-3.562-417.169 36.508-614.4-19.59z" />
<glyph unicode="&#xe91b;" glyph-name="weixin" horiz-adv-x="1247" d="M327.68 960h221.273c161.614-38.289 296.515-144.696 360.626-298.741 137.572-43.631 267.13-118.428 336.584-251.103l0.445 44.077v-214.595c-40.96-67.673-87.263-131.784-134.456-195.005 8.904-36.063 18.254-72.57 28.049-108.633h-47.193c-105.517 49.419-222.609 38.289-334.803 51.2-119.763 15.583-199.012 115.311-277.816 195.896-56.543 6.678-113.085 13.357-169.183 19.59-61.885-28.939-124.216-57.878-186.546-85.927 6.678 54.317 13.802 109.078 20.48 163.84-52.090 62.33-101.955 127.332-145.141 196.786v182.094c55.652 147.812 181.649 249.767 327.68 300.522zM69.009 569.099c-16.473-137.127 138.463-194.115 163.395-314.769 78.803 14.692 158.497 5.343 236.856-6.678 9.35 81.030 0 172.299 54.317 240.417 71.68 108.188 206.581 138.463 320.557 181.203-84.146 105.071-190.553 211.478-333.913 216.376-198.122 35.172-446.553-94.386-441.21-316.55zM782.247 569.544c-159.388-21.37-321.892-213.259-213.704-367.304 90.379-162.504 295.179-172.299 457.238-136.682 70.344 80.139 179.423 169.628 149.148 289.837-38.289 169.628-233.739 250.212-392.682 214.15zM217.266 728.932c44.967 8.014 107.297 68.563 145.141 13.802 54.317-20.035 4.452-97.948-31.165-107.743-62.776-20.035-85.482 55.207-113.976 93.941zM605.496 770.783c64.557-12.021 70.344-72.57 71.68-128.668-38.289 0.89-114.421 2.226-152.264 3.117-6.233 65.447 20.48 107.297 80.584 125.551zM725.704 472.487c84.591 35.617 125.106-113.085 34.727-127.777-84.591-26.268-115.757 103.29-34.727 127.777zM907.353 407.93c17.809 18.699 53.426 56.097 71.235 74.797 18.254-16.473 55.207-48.974 73.906-65.002-24.042-28.494-47.638-57.433-71.235-85.927-24.487 25.377-48.974 50.755-73.906 76.132z" />
<glyph unicode="&#xe91c;" glyph-name="QQ1" d="M275.144 686.637c40.070 237.746 434.087 261.788 501.315 33.391 37.398-156.271 117.092-304.529 114.866-467.923-13.802 16.028-41.85 48.083-56.097 64.111-19.59-19.59-58.769-58.769-78.803-77.913 21.816-22.706 65.447-67.673 87.263-90.379-98.838-54.762-208.807-38.289-314.323-21.816-99.283-16.028-202.129-37.398-300.522-3.117 11.13 28.049 33.837 84.591 44.967 112.64-24.932 29.83-49.419 59.659-73.461 90.379l-73.906-62.33c-17.809 162.504 123.77 270.692 148.703 422.957z" />
<glyph unicode="&#xe91d;" glyph-name="PYQ" d="M388.953 872.297l79.102-79.102 208.74-206.543v270.263c-50.537 21.973-107.666 32.959-164.795 32.959-43.945 0-83.497-6.592-123.047-17.578zM632.849 65.9l-76.904 76.904-208.74 206.543v-268.067c50.537-21.973 105.469-35.156 164.795-35.156 41.748 0 83.497 6.592 120.849 19.776zM140.662 667.951h402.099l-188.965 191.162c-50.537-19.776-98.877-50.537-140.625-92.286-30.762-30.762-54.932-63.721-72.51-98.877zM883.338 270.245h-109.864l-294.434-2.197 191.162-191.162c50.537 21.973 98.877 52.734 138.428 94.482 30.762 28.565 54.932 63.721 74.707 98.877zM107.703 347.15l79.102 76.904 206.543 208.74h-270.263c-21.973-50.537-32.959-105.469-32.959-164.795 0-41.748 6.592-83.497 17.578-120.849zM914.099 591.047l-76.904-79.102-206.543-208.74h268.067c21.973 50.537 35.156 107.666 35.156 164.795 0 43.945-6.592 83.497-19.776 123.047zM312.049 96.662v404.297l-191.162-191.162c19.776-50.537 50.537-98.877 92.286-138.427 30.762-30.762 63.721-54.932 98.877-74.707zM709.754 839.338v-109.864l2.197-292.237 191.162 188.965c-21.973 50.537-52.734 98.877-94.482 140.625-28.565 30.762-63.721 54.932-98.877 72.51z" />
<glyph unicode="&#xe91e;" glyph-name="uniE91E" d="M1009.521 542.915l-100.096 285.082-0.829 2.017c-16.108 33.823-38.502 65.126-92.785 65.126h-611.85c-54.282 0-76.667-31.304-92.785-65.126l-100.936-287.099 6.42-2.253h-3.727c0-47.688 38.799-86.477 86.477-86.477 8.806 0 17.306 1.341 25.324 3.799v-325.714c0-53.637 41.155-97.28 91.73-97.28h586.844c50.575 0 91.73 43.643 91.73 97.28v325.714c7.571-2.41 16.279-3.799 25.312-3.799 0.004 0 0.008 0 0.013 0h-0.001c47.688 0 86.477 38.789 86.477 86.477h-3.727l6.41 2.253zM854.077 132.27c0-31.048-22.784-56.32-50.77-56.32h-586.844c-27.996 0-50.77 25.272-50.77 56.32v352h-0.87c1.044 1.198 2.028 2.447 3 3.707 15.831-20.5 40.571-33.782 68.413-33.782s52.582 13.281 68.413 33.782c15.831-20.5 40.571-33.782 68.413-33.782s52.582 13.281 68.413 33.782c15.831-20.5 40.571-33.782 68.413-33.782s52.582 13.281 68.413 33.782c15.831-20.5 40.571-33.782 68.413-33.782s52.593 13.281 68.413 33.782c15.831-20.5 40.571-33.782 68.413-33.782s52.582 13.281 68.413 33.782c0.973-1.26 1.966-2.499 3-3.707h-0.87v-352zM920.351 495.145c-25.122 0.035-45.477 20.394-45.507 45.514v0.003h-45.804c-0.029-25.123-20.384-45.482-45.503-45.517h-0.003c-25.126 0.029-45.488 20.39-45.517 45.514v0.003h-45.793c-0.029-25.126-20.39-45.488-45.514-45.517h-0.003c-25.122 0.035-45.477 20.394-45.507 45.514v0.003h-45.804c-0.029-25.123-20.384-45.482-45.503-45.517h-0.003c-25.126 0.029-45.488 20.39-45.517 45.514v0.003h-45.793c0-25.098-20.419-45.517-45.517-45.517s-45.517 20.419-45.517 45.517h-45.793c0-25.098-20.419-45.517-45.517-45.517s-45.517 20.419-45.517 45.517h-45.793c0-25.098-20.419-45.517-45.517-45.517s-45.517 20.419-45.517 45.517h-1.034l95.754 272.712c15.053 31.252 28.099 40.817 55.337 40.817h611.86c27.238 0 40.294-9.564 55.337-40.806l95.754-272.712h-1.034c-0.017-25.133-20.384-45.504-45.515-45.527h-0.002zM236.237 716.278h547.297v-40.96h-547.297z" />
<glyph unicode="&#xe91f;" glyph-name="2" d="M911.7 832.3h-799.4c-32.1 0-58.3-26.1-58.3-58.3v-519.8c0-32.1 26.2-58.3 58.3-58.3h295.4v-62.3c0-7.6-2.6-15-7.3-21l-15.8-12.9c-6.7-5.5-9.2-14.4-6.3-22.6s10.4-13.5 19.2-13.5h229.1c8.7 0 16.2 5.3 19.2 13.5 2.9 8.2 0.5 17.1-6.3 22.6l-15.8 12.9c-4.7 6-7.3 13.4-7.3 21v62.3h295.4c32.1 0 58.3 26.2 58.3 58.3v519.8c-0.1 32.2-26.3 58.3-58.4 58.3zM608.9 99.2c0.4-0.5 0.9-0.9 1.3-1.3l16.6-13.5 0.1-0.1c0-0.1-0.1-0.4-0.1-0.5h-229.5c-0.1 0.1-0.2 0.4-0.2 0.4l0.2 0.2 16.6 13.5c0.5 0.4 0.9 0.8 1.3 1.3 8.1 9.7 12.5 21.9 12.5 34.5v62.3h168.6v-62.3c0-12.6 4.5-24.9 12.6-34.5zM950 254.2c0-21.1-17.2-38.3-38.3-38.3h-799.4c-21.1 0-38.3 17.2-38.3 38.3v519.8c0 21.1 17.2 38.3 38.3 38.3h799.4c21.1 0 38.3-17.2 38.3-38.3v-519.8zM865.3 757.7h-706.6c-18.6 0-33.8-15.1-33.8-33.8v-387.2c0-18.6 15.1-33.8 33.8-33.8h706.6c18.6 0 33.8 15.1 33.8 33.8v387.3c0 18.6-15.2 33.7-33.8 33.7zM879.1 336.8c0-7.6-6.2-13.8-13.8-13.8h-706.6c-7.6 0-13.8 6.2-13.8 13.8v387.2c0 7.6 6.2 13.8 13.8 13.8h706.6c7.6 0 13.8-6.2 13.8-13.8v-387.2z" />
<glyph unicode="&#xe920;" glyph-name="4" d="M996.515 505.285c0-55.484-12.576-109.289-37.371-159.912-23.823-48.658-57.878-92.302-101.205-129.714-43.112-37.238-93.254-66.443-149.045-86.828-57.602-21.039-118.755-31.702-181.76-31.702-11.308 0-20.466 9.159-20.466 20.466 0 11.297 9.159 20.466 20.466 20.466 58.206 0 114.631 9.824 167.72 29.215 51.114 18.675 96.989 45.373 136.335 79.357 80.207 69.278 124.393 161.13 124.393 258.651 0 97.511-44.186 189.373-124.393 258.651-39.346 33.984-85.221 60.682-136.335 79.347-53.089 19.392-109.514 29.226-167.72 29.226s-114.631-9.834-167.72-29.226c-51.124-18.665-96.989-45.363-136.335-79.347-80.217-69.278-124.393-161.13-124.393-258.651 0-59.024 15.861-115.398 47.133-167.536 30.044-50.101 73.934-94.339 126.931-127.924 5.904-3.756 9.496-10.264 9.507-17.263 0-2.691-0.471-58.717-42.396-132.927 33.851 5.761 66.587 19.248 97.716 40.328 32.695 22.144 51.216 44.78 51.401 45.005 7.102 8.77 19.985 10.151 28.765 3.060s10.182-19.934 3.121-28.724c-0.87-1.085-21.745-26.841-59.065-52.363-49.211-33.667-104.531-51.442-160.066-51.442h-1.167c-7.634 0.041-14.603 4.308-18.102 11.093-3.489 6.774-2.927 14.94 1.463 21.172 29.379 41.679 43.419 78.815 50.019 102.638 3.735 13.467 5.577 24.314 6.488 31.63-53.713 36.102-98.401 82.448-129.725 134.667-34.639 57.766-52.956 122.971-52.956 188.585 0 55.484 12.576 109.289 37.361 159.912 23.833 48.648 57.878 92.302 101.205 129.714 43.112 37.228 93.254 66.443 149.045 86.828 57.602 21.039 118.755 31.702 181.77 31.702 63.005 0 124.158-10.663 181.76-31.702 55.791-20.384 105.933-49.6 149.045-86.828 43.327-37.412 77.382-81.066 101.205-129.714 24.795-50.623 37.371-104.428 37.371-159.912z" />
<glyph unicode="&#xe921;" glyph-name="6" d="M908.4 409c3.6 30.8-68.7 140.1-104 234s-100.3 221-325 221c-224.7 0-364-194.9-364-325 0-175.8 117.5-285.3 117-325 0-0.6 0-169 0-169s4.9-13 17.1-13c16.6 0 21.9 13 21.9 13v169c0 50.5-116.3 183.1-117 325-0.8 153 165.4 278.6 312 285.7v-247.4c-61.3-7.3-104-65.6-104-129.2 0-68 51.8-118.2 120.1-118.2 27.6 0 53 9.2 73.6 24.4l63.5-45.1c-0.3-1.8-0.5-3.5-0.5-5.3 0-21.5 17.5-38.9 39-38.9 21.6 0 39 17.4 39 38.9s-17.5 38.9-39 38.9c-5.2 0-10-1.1-14.5-2.8l-59.8 42.5c14.1 20 22.4 44.3 22.4 70.6 0 59.2-44.2 109.9-100.6 122.2v248.6c191.9-10.9 243.4-140.7 259.9-193.9 17.4-56.3 104.3-192.4 104-208-0.3-15.8-91-52-91-52v-104c0 0-0.1-25.5-26-52-24.2-24.8-78-26-78-26h-52v-143c0 0 5-13 17.9-13 18.8 0 21.1 13 21.1 13v104c0 0 54-5.7 104 26 53.2 33.8 52 91 52 91v78c25.7 8.3 87.4 34.2 90.9 65zM567 453c0-46.5-37.9-84.3-84.5-84.3-46.7 0-84.5 37.7-84.5 84.3s37.8 84.3 84.5 84.3c46.7-0.1 84.5-37.8 84.5-84.3z" />
<glyph unicode="&#xe922;" glyph-name="3" d="M785.053 191.98l-28.387 42.667c68.84 45.94 114.213 124.287 114.213 213.253 0 88.98-45.373 167.313-114.213 213.267l28.387 42.653c82.627-55.14 137.087-149.147 137.087-255.92s-54.46-200.793-137.087-255.92zM699.793 319.98l-28.4 42.653c27.54 18.387 45.707 49.687 45.707 85.28 0 35.607-18.167 66.907-45.707 85.293l28.4 42.64c41.313-27.573 68.553-74.533 68.553-127.933s-27.24-100.373-68.553-127.933zM550.507 37.82h-38.453v2.1l-223.94 177.313h-134.893c-28.313 0-51.26 22.94-51.26 51.26v358.82c0 28.313 22.953 51.26 51.26 51.26h134.933l223.9 177.087v2.32h38.453c7.073 0 12.807-5.747 12.807-12.82v-794.527c0.007-7.080-5.733-12.813-12.807-12.813zM307.007 627.313h-153.78v-358.82h153.78l205.047-162.933v684.693l-205.047-162.94z" />
<glyph unicode="&#xe923;" glyph-name="5" d="M835.7 223.8v46.4c0 8.3-6.9 15.4-15.4 15.4-8.6 0-15.4-6.9-15.4-15.4v-46.4h-46.4c-8.3 0-15.4-6.9-15.4-15.4 0-8.6 6.9-15.5 15.4-15.5h46.4v-46.4c0-8.3 6.9-15.4 15.4-15.4 8.6 0 15.4 6.9 15.4 15.4v46.4h46.4c8.3 0 15.4 6.9 15.4 15.5s-6.9 15.4-15.4 15.4h-46.4zM820.3 347.4c-76.8 0-139-62.2-139-139s62.2-139 139-139 139 62.2 139 139c0 76.7-62.2 139-139 139zM820.3 115.6c-51.2 0-92.7 41.5-92.7 92.7s41.5 92.7 92.7 92.7 92.7-41.5 92.7-92.7c0-51.1-41.5-92.7-92.7-92.7zM871.8 370.9c-0.2 0.1-0.5 0.1-0.7 0.2-43.6 43-103.1 69.4-168.7 69.4-5 0-9.9-0.2-14.9-0.5v0.5c-12.7 0.1-23 12.2-23 24.1s10.3 22.1 23 22.2v0.2c2.5-0.2 5-0.2 7.6-0.2 62.8 0 113.7 51.8 113.7 115.7s-50.9 115.7-113.7 115.7c-12.3 0-24.1-2-35.1-5.6-2.7-1.4-6.7-2.9-12.3-5-17.9-6.6-26.2 8.2-27.9 20-1.6 11 3.5 22.7 21.5 27.4 16.8 6.2 35 9.5 53.9 9.5 87.9 0 159.2-72.5 159.2-161.9 0-51.1-23.3-96.7-59.6-126.4 42.5-14.5 80.6-38.9 111.6-70.4l-0.1-0.1c6-4.5 9.8-11.6 9.8-19.7 0-13.6-11.1-24.7-24.7-24.7-8 0-15.1 3.7-19.6 9.6zM657.2 328.9c-43.8 53.1-104.9 91.4-174.8 106.1-0.8-0.1-1.7-0.1-2.5-0.1-14.9 0-27 12-27 26.9 0 14.7 11.8 26.6 26.5 26.9 55.2 23.4 94 78 94 141.6 0 84.9-69.2 153.8-154.5 153.8-34.3 0-66-11.1-91.6-30-4.8 3-10.4 4.8-16.5 4.8-17.1 0-30.9-13.8-30.9-30.8 0-7.1 2.4-13.6 6.5-18.8-13.9-23.1-21.9-50.1-21.9-79 0-64 39.3-118.9 95.1-142 0-0.1-0.1-0.2-0.1-0.3 11.9-2.8 20.7-13.5 20.7-26.1 0-14.3-11.3-26-25.6-26.8-136-28.8-239.1-147.1-244.6-290.5 0.5-1.8 0.7-3.8 0.7-5.8 0-12.7-10.4-23-23.2-23-11.3 0-20.7 8-22.8 18.6h-1.4v0.3c0 155.8 101.2 288.1 241.7 335.3-50.3 35.5-83.2 94-83.2 160.1 0 32.2 7.8 62.5 21.5 89.3-5.3 8.2-8.4 17.9-8.4 28.4 0 28.9 23.5 52.3 52.5 52.3 8.6 0 16.6-2 23.8-5.7 30.9 20.1 67.9 31.8 107.6 31.8 108.8 0 197-87.8 197-196.1 0-66.1-32.8-124.6-83.2-160.1 65-21.9 121.6-61.9 163.7-114.1l-0.3-0.3c4.2-4.3 6.8-10.2 6.8-16.7 0-13.2-10.7-24-24-24-9.5 0-17.9 5.8-21.6 14z" />
</font>
</defs>
</svg>
